头像

初夏酱

欢迎访问我的博客!

《《你的名字》1080P–资源》

 1年前  •   动漫, 资源  •   , ,  •   103  •   2

来自宇辰

蓝光原盘来自网络 重编码来自Tom
Your.Name..2016.1080p.JPN.Blu-ray.H264-Tom.mkv
04.jpg

压制参数

帧大小 1920×1080 (1.0), 23.976fps, 逐行扫描
比特率 VBR, 1次, 目标7.0Mbps, 最大10.0Mbps
日文AAC 5.1
内封日文和中文软字幕,可关闭

详细参数

Format : Matroska
Format version : Version 4 / Version 2
File size : 6.51 GiB
Duration : 1 h 46 min
Overall bit rate : 8 739 kb/s
Encoded date : UTC 2017-07-25 17:21:50
Writing application : mkvmerge v9.9.0 (‘Pick Up’) 64bit
Writing library : libebml v1.3.4 + libmatroska v1.4.5

Video
ID : 1
Format : AVC
Format/Info : Advanced Video Codec
Format profile : Main@L4.1
Format settings, CABAC : Yes
Format settings, ReFrames : 3 frames
Codec ID : V_MPEG4/ISO/AVC
Duration : 1 h 46 min
Bit rate : 8 286 kb/s
Width : 1 920 pixels
Height : 1 080 pixels
Display aspect ratio : 16:9
Frame rate mode : Constant
Frame rate : 23.976 (24000/1001) FPS
Standard : NTSC
Color space : YUV
Chroma subsampling : 4:2:0
Bit depth : 8 bits
Scan type : Progressive
Bits/(Pixel*Frame) : 0.167
Stream size : 6.17 GiB (95%)
Title : Your.Name..2016.1080p.JPN.Blu-ray.H264-Tom
Language : Japanese
Default : Yes
Forced : No
Color range : Limited
Color primaries : BT.709
Transfer characteristics : BT.709
Matrix coefficients : BT.709

Audio
ID : 2
Format : AAC
Format/Info : Advanced Audio Codec
Format profile : LC
Codec ID : A_AAC
Duration : 1 h 46 min
Bit rate : 420 kb/s
Channel(s) : 6 channels
Channel positions : Front: L C R, Side: L R, LFE
Sampling rate : 48.0 kHz
Frame rate : 46.875 FPS (1024 spf)
Compression mode : Lossy
Delay relative to video : 9 ms
Stream size : 320 MiB (5%)
Title : Your.Name..2016.1080p.JPN.Blu-ray.AAC.5.1
Language : Japanese
Default : Yes
Forced : No

Text #1
ID : 3
Format : PGS
Muxing mode : zlib
Codec ID : S_HDMV/PGS
Codec ID/Info : Picture based subtitle format used on BDs/HD-DVDs
Duration : 1 h 45 min
Bit rate : 13.5 kb/s
Count of elements : 2919
Stream size : 10.2 MiB (0%)
Title : chinese
Language : Chinese
Default : Yes
Forced : Yes

Text #2
ID : 4
Format : PGS
Muxing mode : zlib
Codec ID : S_HDMV/PGS
Codec ID/Info : Picture based subtitle format used on BDs/HD-DVDs
Duration : 1 h 45 min
Bit rate : 17.3 kb/s
Count of elements : 3515
Stream size : 13.1 MiB (0%)
Title : Japanese
Language : Japanese
Default : No
Forced : No

下载地址

文件大小6.51 GiB
地址
(密码:x3b73q)

版权声明

本文基于《CC BY-NC-SA 4.0》许可协议授权
如未注明,均为原创
如需转载请注明出处
本文链接:https://www.poploli.com/88.html

上一篇:
下一篇:

 评论


 已有2条评论

  1. Tom 2级粉丝 未知的操作系统 | 未知浏览器 1年前

    @(wuzuixiao) @(wuzuixiao)

    • 初夏酱 老大 未知的操作系统 | 未知浏览器 1年前

      Tom@(huaji) @(huaji) @(huaji)